VLC-плеер не может поддерживать файлы m4v

2

Я продвинутый пользователь Ubuntu, и я создал файл сценария для TunesViewer, чтобы он работал, и он может загружать все большинство видео, и он использует vlc-плеер, но я не могу показать файл * .m4v и файл является неопознанным файлом с именем «undf», он говорит:

  

Нет подходящего модуля декодера: VLC не поддерживает аудио или видео   format "undf". К сожалению, вы не можете исправить это.

и отображает окно с ошибками. когда я нажимаю закрыть, он говорит:

  

Ваш вход не может быть открыт: VLC можно открыть Mrd   ' Ссылка .   Подробнее см. Журнал.

и чем он загружает файл, но не может его отобразить, и есть ли другие игроки, поддерживающие этот тип файла? Может кто-то, пожалуйста, помогите.

    
задан Michael 21.05.2014 в 16:21
источник

2 ответа

1

Ну, запуск VLC с терминала дает ошибку 404, то есть файл не найден, но это расширение .M4C! Перейдя на .M4V, у меня есть черный экран с элементами управления, по-видимому, для воспроизведения файла за 30 секунд ... но он ничего не играет!

Мое предположение, что файл поврежден или недействителен! Я попытался открыть его через TunesViewer, и он дает мне - .M4C или .M4V, ту же ошибку -

Download Error: timed out

, и когда вы загружаете его через телевизор, а затем открываете его (он вызывает «тотем»), вы получаете сообщение об ошибке

the stream is encrypted and decryption is not supported

Вы можете открыть его - файл или поток - так или иначе?

Вот информация, запрашиваемая @LiveWireBT:

  

Общие
  Полное имя: mzvf_5091800164576836550.640x480.h264lc.D2.p.m4v
  Формат: MPEG-4
  Codec ID: M4V
  Размер файла: 3.99 MiB
  Продолжительность: 30s 0ms
  Общая скорость передачи данных: 1 116 Кбит / с
  Закодированная дата: UTC 2013-01-09 06:31:37
  Tagged date: UTC 2013-01-09 06:31:37

     

Видео
  ID: 1 |   Формат: AVC
  Формат / Информация: Расширенный видеокодек
  Профиль профиля: Baseline@L3.0
  Настройки формата, CABAC: Нет
  Настройки формата, ReFrames: 1 кадр
  Codec ID: avc1
  Codec ID / Информация: расширенное кодирование видео
  Продолжительность: 30s 0ms
  Длительность источника: 31 с 615 мс
  Битрейт: 927 Кбит / с
  Ширина: 640 пикселей
  Высота: 480 пикселей
  Соотношение сторон экрана: 16: 9
  Режим частоты кадров: постоянный
  Частота кадров: 23,976 fps
  Цветовое пространство: YUV
  Хроматическая подвыборка: 4: 2: 0
  Бит-глубина: 8 бит
  Тип сканирования: Прогрессивный
  Биты / (пиксель * Рамка): 0,126
  Размер потока: 3,31 MiB (83%)
  Размер исходного потока: 3,52 MiB (88%)
  Язык: английский
  Закодированная дата: UTC 2013-01-09 06:31:37
  Tagged date: UTC 2013-01-09 06:31:37
  Цветные праймериз: BT.601-6 525, BT.1358 525, BT.1700 NTSC, SMPTE 170M
  Характеристики переноса: BT.709-5, BT.1361
  Матричные коэффициенты: BT.601-6 525, BT.1358 525, BT.1700 NTSC, SMPTE 170M

     

Аудио
  ID: 2 |   Формат: AAC
  Формат / Информация: Расширенный аудиокодек
  Профиль профиля: LC
  Codec ID: 40
  Продолжительность: 30s 0ms
  Длительность источника: 30 секунд 23 мс
  Режим бит-скорости: постоянный
  Битрейт: 128 Кбит / с
  Канал (ы): 2 канала
  Позиции каналов: Фронт: L R
  Частота дискретизации: 44,1 кГц
  Режим сжатия: Lossy
  Задержка относительно видео: -1s 300ms
  Размер потока: 453 KiB (11%)
  Размер исходного потока: 453 KiB (11%)
  Язык: английский
  Закодированная дата: UTC 2013-01-09 06:31:37
  Tagged date: UTC 2013-01-09 06:31:37
  Шифрование: iTunes

... но после быстрого поиска и похоже, что VLC не может расшифровать защиту iTunes, поэтому сообщение @Michael получает!

    
ответ дан ionreflex 21.05.2014 в 17:18
1

Файл действительно можно загрузить, изменив расширение файла, поэтому это правильная ссылка . Однако MPlayer идентифицирует файл, обремененный защитой DRM:

    Stream #0:0(eng): Audio: aac (drms / 0x736D7264), 44100 Hz, stereo, fltp, 123 kb/s (default)
Metadata:
  creation_time   : 2013-01-09 06:31:37
  handler_name    : Apple Sound Media Handler
Stream #0:1(eng): Video: none (drmi / 0x696D7264), 640x480, 932 kb/s, SAR 4:3 DAR 16:9, 23.98 fps, 23.98 tbr, 2997 tbn, 2997 tbc (default)
Metadata:
  creation_time   : 2013-01-09 06:31:37
  handler_name    : Apple Video Media Handler

Смотрите там драммы и ярлыки drmi? ИМХО, лучше всего избегать таких типов файлов и технологии, которые их производят ....

    
ответ дан andrew.46 23.05.2014 в 03:26