Использование avconv, при пересылке в MKV, есть ли способ исправить упакованные входные файлы AVI?

7

Из-за ошибок совместимости между сервером Plex и телевизорами Panasonic единственный способ заставить его работать хорошо - это все, что нужно для MKV, прямое копирование всех потоков (видео, аудио, субтитры)

Кажется достаточно простым:

avconv -i "input.avi" -c copy "output.mkv"

Кроме:

avconv version 0.8.6-4:0.8.6-0ubuntu0.12.04.1, Copyright (c) 2000-2013 the Libav developers
  built on Apr  2 2013 17:00:59 with gcc 4.6.3
[mpeg4 @ 0x8422140] Invalid and inefficient vfw-avi packed B frames detected
Input #0, avi, from 'input.avi':
  Metadata:
    encoder         : VirtualDubMod 1.5.4.1 (build 2117/release)
  Duration: 00:27:38.52, start: 0.000000, bitrate: 1173 kb/s
    Stream #0.0: Video: mpeg4 (Advanced Simple Profile), yuv420p, 640x352 [PAR 1:1 DAR 20:11], 25 tbr, 25 tbn, 25 tbc
    Stream #0.1: Audio: mp3, 48000 Hz, stereo, s16, 132 kb/s
File 'output.mkv' already exists. Overwrite ? [y/N] y
Output #0, matroska, to 'output.mkv':
  Metadata:
    encoder         : Lavf53.21.1
    Stream #0.0: Video: mpeg4, yuv420p, 640x352 [PAR 1:1 DAR 20:11], q=2-31, 1k tbn, 25 tbc
    Stream #0.1: Audio: libmp3lame, 48000 Hz, stereo, 132 kb/s
Stream mapping:
  Stream #0:0 -> #0:0 (copy)
  Stream #0:1 -> #0:1 (copy)
Press ctrl-c to stop encoding
[matroska @ 0x8422cc0] Can't write packet with unknown timestamp
av_interleaved_write_frame(): Invalid argument

С соответствующими линиями поиска:

[mpeg4 @ 0x8422140] Invalid and inefficient vfw-avi packed B frames detected#
<snip>
[matroska @ 0x8422cc0] Can't write packet with unknown timestamp
av_interleaved_write_frame(): Invalid argument

Я не вижу возможности распаковывать B-кадры (или создавать временную карту VBR? нужны ли они в avconv?)

Есть ли способ сделать это, как в avidemux?

    
задан RoboJ1M 28.04.2013 в 19:21
источник

3 ответа

8

Обходной путь заключается в том, чтобы сначала преобразовать в .mp4:

avconv -i input.avi -c copy temp.mp4
avconv -i temp.mp4 -c copy output.mkv
rm temp.mp4

К сожалению, нельзя просто передать формат mp4 между экземплярами avconv: «[mp4 @ 0x80846c0] muxer не поддерживает вывод, который нельзя найти»

    
ответ дан rmsr 09.05.2013 в 06:16
источник
5

По этот билет № 1979 в ffmpeg bugtracker простейшим решением является исправление этой ошибки или добавление вручную -fflags +genpts в командной строке.

т.е. изменение

ffmpeg -i inputfile_that_cant_be_muxed_into_mkv.ext -c copy out.mkv

к

ffmpeg -fflags +genpts -i inputfile_that_cant_be_muxed_into_mkv.ext -c copy out.mkv
    
ответ дан erik 01.02.2014 в 09:44
источник
1

Благодаря Andreas Cadhalpun ffmpeg теперь имеет новый фильтр: mpeg4_unpack_bframes (см. исх ). Это позволит вам избавиться от сообщения: Invalid and inefficient vfw-avi packed B frames detected .

Использование так же просто, как:

ffmpeg -i INPUT.avi -codec copy -bsf:v mpeg4_unpack_bframes OUTPUT.avi
    
ответ дан malat 16.08.2015 в 06:31
источник

Ознакомьтесь с другими вопросами по меткам